<?xml version="1.0" standalone="no"?>
<!DOCTYPE svg PUBLIC "-//W3C//DTD SVG 1.1//EN" "http://www.w3.org/Graphics/SVG/1.1/DTD/svg11.dtd" >
<svg xmlns="http://www.w3.org/2000/svg" xmlns:xlink="http://www.w3.org/1999/xlink" version="1.1">
<metadata>
Created by FontForge 20170731 at Fri Nov 16 18:31:14 2018
 By Aleksey,,,
(c) LEVEL Group 2018
</metadata>
<defs>
<font id="LEVELMorse-Regular" horiz-adv-x="1868" >
  <font-face 
    font-family="LEVEL Morse"
    font-weight="400"
    font-stretch="normal"
    units-per-em="1000"
    panose-1="0 0 5 0 0 0 0 0 0 0"
    ascent="800"
    descent="-200"
    x-height="302"
    bbox="0 -200 2536 800"
    underline-thickness="50"
    underline-position="-200"
    unicode-range="U+0020-00F8"
  />
<missing-glyph horiz-adv-x="500" 
d="M410 800v-1000h-317v1000h317zM333 118h-166v-113h166v113zM300 85v-47h-100v47h100zM333 291h-100v-56h34v23h33v-47h-100v80h-33v-113h166v113zM333 413h-33v-66h-133v-34h166v100zM333 473h-166v-33h66v-37h-66v-33h100v70h66v33zM233 570v-36h-33v36h33zM267 604
h-100v-104h166v34h-66v70zM333 733h-165v-33h65v-37h-66v-33h166v33h-66v37h66v33zM333 -18h-166v-33h70l-70 -47v-33h166v33h-102l70 47h32v33z" />
    <glyph glyph-name=".notdef" horiz-adv-x="500" 
d="M410 800v-1000h-317v1000h317zM333 118h-166v-113h166v113zM300 85v-47h-100v47h100zM333 291h-100v-56h34v23h33v-47h-100v80h-33v-113h166v113zM333 413h-33v-66h-133v-34h166v100zM333 473h-166v-33h66v-37h-66v-33h100v70h66v33zM233 570v-36h-33v36h33zM267 604
h-100v-104h166v34h-66v70zM333 733h-165v-33h65v-37h-66v-33h166v33h-66v37h66v33zM333 -18h-166v-33h70l-70 -47v-33h166v33h-102l70 47h32v33z" />
    <glyph glyph-name=".null" horiz-adv-x="0" 
 />
    <glyph glyph-name="nonmarkingreturn" horiz-adv-x="333" 
 />
    <glyph glyph-name="space" unicode=" " horiz-adv-x="1334" 
 />
    <glyph glyph-name="zero" unicode="0" horiz-adv-x="2936" 
d="M0 202v100h400v-100h-400zM534 202v100h400v-100h-400zM1068 202v100h400v-100h-400zM1602 202v100h400v-100h-400zM2136 202v100h400v-100h-400z" />
    <glyph glyph-name="one" unicode="1" horiz-adv-x="2669" 
d="M267 202v100h400v-100h-400zM0 202v100h133v-100h-133zM1335 202v100h400v-100h-400zM801 202v100h400v-100h-400zM1869 202v100h400v-100h-400z" />
    <glyph glyph-name="two" unicode="2" horiz-adv-x="2402" 
d="M534 202v100h400v-100h-400zM1068 202v100h400v-100h-400zM0 202v100h133v-100h-133zM267 202v100h133v-100h-133zM1602 202v100h400v-100h-400z" />
    <glyph glyph-name="three" unicode="3" horiz-adv-x="2135" 
d="M0 202v100h133v-100h-133zM801 202v100h400v-100h-400zM801 202v100h400v-100h-400zM1335 202v100h400v-100h-400zM267 202v100h133v-100h-133zM534 202v100h133v-100h-133z" />
    <glyph glyph-name="four" unicode="4" 
d="M1068 200v100h400v-100h-400zM267 200v100h133v-100h-133zM1068 200v100h400v-100h-400zM534 200v100h133v-100h-133zM801 200v100h133v-100h-133zM0 200v100h133v-100h-133z" />
    <glyph glyph-name="five" unicode="5" horiz-adv-x="1601" 
d="M0 202v100h133v-100h-133zM534 202v100h133v-100h-133zM801 202v100h133v-100h-133zM1068 202v100h133v-100h-133zM267 202v100h133v-100h-133z" />
    <glyph glyph-name="six" unicode="6" 
d="M534 202v100h133v-100h-133zM801 202v100h133v-100h-133zM1068 202v100h133v-100h-133zM1335 202v100h133v-100h-133zM0 202v100h400v-100h-400z" />
    <glyph glyph-name="seven" unicode="7" horiz-adv-x="2135" 
d="M0 202v100h400v-100h-400zM534 202v100h400v-100h-400zM1068 202v100h133v-100h-133zM1335 202v100h133v-100h-133zM1602 202v100h133v-100h-133z" />
    <glyph glyph-name="eight" unicode="8" horiz-adv-x="2402" 
d="M0 202v100h400v-100h-400zM534 202v100h400v-100h-400zM1068 202v100h400v-100h-400zM1602 202v100h133v-100h-133zM1869 202v100h133v-100h-133z" />
    <glyph glyph-name="nine" unicode="9" horiz-adv-x="2669" 
d="M0 202v100h400v-100h-400zM534 202v100h400v-100h-400zM1068 202v100h400v-100h-400zM1602 202v100h400v-100h-400zM2136 202v100h133v-100h-133z" />
    <glyph glyph-name="a" unicode="a" horiz-adv-x="1025" 
d="M0 201v100h125v-100h-125zM250 201v100h375v-100h-375z" />
    <glyph glyph-name="b" unicode="b" horiz-adv-x="1595" 
d="M531 202v99h133v-99h-133zM0 202v99h398v-99h-398zM797 202v99h132v-99h-132zM1062 202v99h133v-99h-133z" />
    <glyph glyph-name="c" unicode="c" 
d="M801 202v100h400v-100h-400zM534 202v100h133v-100h-133zM0 202v100h400v-100h-400zM1335 202v100h133v-100h-133z" />
    <glyph glyph-name="d" unicode="d" horiz-adv-x="1334" 
d="M534 202v100h133v-100h-133zM0 202v100h400v-100h-400zM801 202v100h133v-100h-133z" />
    <glyph glyph-name="e" unicode="e" horiz-adv-x="533" 
d="M0 202v100h133v-100h-133z" />
    <glyph glyph-name="f" unicode="f" horiz-adv-x="1601" 
d="M0 202v100h133v-100h-133zM534 202v100h400v-100h-400zM267 202v100h133v-100h-133zM1068 202v100h133v-100h-133z" />
    <glyph glyph-name="g" unicode="g" horiz-adv-x="1601" 
d="M0 202v100h400v-100h-400zM1068 202v100h133v-100h-133zM534 202v100h400v-100h-400z" />
    <glyph glyph-name="h" unicode="h" horiz-adv-x="1334" 
d="M534 202v100h133v-100h-133zM0 202v100h133v-100h-133zM267 202v100h133v-100h-133zM801 202v100h133v-100h-133z" />
    <glyph glyph-name="i" unicode="i" horiz-adv-x="800" 
d="M0 202v100h133v-100h-133zM267 202v100h133v-100h-133z" />
    <glyph glyph-name="j" unicode="j" horiz-adv-x="2135" 
d="M0 202v100h133v-100h-133zM267 202v100h400v-100h-400zM801 202v100h400v-100h-400zM1334 202v100h401v-100h-401z" />
    <glyph glyph-name="k" unicode="k" horiz-adv-x="1601" 
d="M534 202v100h133v-100h-133zM0 202v100h400v-100h-400zM801 202v100h400v-100h-400z" />
    <glyph glyph-name="l" unicode="l" horiz-adv-x="1601" 
d="M0 202v100h133v-100h-133zM267 202v100h400v-100h-400zM801 202v100h133v-100h-133zM1068 202v100h133v-100h-133z" />
    <glyph glyph-name="m" unicode="m" horiz-adv-x="1334" 
d="M0 202v100h400v-100h-400zM534 202v100h400v-100h-400z" />
    <glyph glyph-name="n" unicode="n" horiz-adv-x="1067" 
d="M0 202v100h400v-100h-400zM534 202v100h133v-100h-133z" />
    <glyph glyph-name="o" unicode="o" 
d="M534 202v100h400v-100h-400zM0 202v100h400v-100h-400zM1068 202v100h400v-100h-400z" />
    <glyph glyph-name="p" unicode="p" 
d="M267 202v100h400v-100h-400zM0 202v100h133v-100h-133zM801 202v100h400v-100h-400zM1334 202v100h134v-100h-134z" />
    <glyph glyph-name="q" unicode="q" horiz-adv-x="2135" 
d="M534 202v100h400v-100h-400zM0 202v100h400v-100h-400zM1068 202v100h133v-100h-133zM1334 202v100h401v-100h-401z" />
    <glyph glyph-name="r" unicode="r" horiz-adv-x="1334" 
d="M0 202v100h133v-100h-133zM801 202v100h133v-100h-133zM267 202v100h400v-100h-400z" />
    <glyph glyph-name="s" unicode="s" horiz-adv-x="1067" 
d="M0 202v100h133v-100h-133zM267 202v100h133v-100h-133zM534 202v100h133v-100h-133z" />
    <glyph glyph-name="t" unicode="t" horiz-adv-x="800" 
d="M0 202v100h400v-100h-400z" />
    <glyph glyph-name="u" unicode="u" horiz-adv-x="1334" 
d="M534 202v100h400v-100h-400zM0 202v100h134v-100h-134zM267 202v100h133v-100h-133z" />
    <glyph glyph-name="v" unicode="v" horiz-adv-x="1601" 
d="M0 202v100h134v-100h-134zM801 202v100h400v-100h-400zM267 202v100h133v-100h-133zM534 202v100h133v-100h-133z" />
    <glyph glyph-name="w" unicode="w" horiz-adv-x="1601" 
d="M267 202v100h400v-100h-400zM0 202v100h133v-100h-133zM801 202v100h400v-100h-400z" />
    <glyph glyph-name="x" unicode="x" 
d="M534 202v100h133v-100h-133zM801 202v100h133v-100h-133zM0 202v100h400v-100h-400zM1068 202v100h400v-100h-400z" />
    <glyph glyph-name="y" unicode="y" horiz-adv-x="2135" 
d="M534 202v100h133v-100h-133zM0 202v100h400v-100h-400zM534 202v100h133v-100h-133zM801 202v100h400v-100h-400zM1334 202v100h401v-100h-401z" />
    <glyph glyph-name="z" unicode="z" 
d="M0 202v100h400v-100h-400zM1068 202v100h133v-100h-133zM1334 202v100h134v-100h-134zM534 202v100h400v-100h-400z" />
    <glyph glyph-name="aring" unicode="&#xe5;" horiz-adv-x="2402" 
d="M801 202v100h400v-100h-400zM1602 202v100h400v-100h-400zM0 202v100h133v-100h-133zM1335 202v100h133v-100h-133zM267 202v100h400v-100h-400z" />
    <glyph glyph-name="ae" unicode="&#xe6;" 
d="M0 202v100h133v-100h-133zM801 202v100h133v-100h-133zM267 202v100h400v-100h-400zM1068 202v100h400v-100h-400z" />
    <glyph glyph-name="oslash" unicode="&#xf8;" horiz-adv-x="2135" 
d="M0 202v100h400v-100h-400zM1602 202v100h133v-100h-133zM534 202v100h400v-100h-400zM1068 202v100h400v-100h-400z" />
    </font>
</defs>
</svg>
